1. Files
  2. Games
  3. Online
  4. Images

> > Young Models Casting - Nadya

Young Models Casting - Nadya

  High Speed Download
 
 Code:General Complete name                    : Young Models Casting - Nadya.wmv Format                           : Windows Media File size                        : 336 MiB Duration                         : 19mn 37s Overall bit rate mode            : Constant Overall bit rate                 : 2 393 Kbps Maximum Overall bit rate         : 2 396 Kbps Encoded date                     : UTC 2008-07-13 15:15:15.625 AspectRatioX                     : 1 AspectRatioY                     : 1 Video ID                               : 2 Format                           : VC-1 Format profile                   : MP@HL Codec ID                         : WMV3 Codec ID/Info                    : Windows Media Video 9 Codec ID/Hint                    : WMV3 Description of the codec         : Windows Media Video 9 - Professional Duration                         : 19mn 37s Bit rate mode                    : Constant Bit rate                         : 2 000 Kbps Width                            : 832 pixels Height                           : 468 pixels Display aspect ratio             : 16:9 Frame rate                       : 25.000 fps Bit depth                        : 8 bits Scan type                        : Progressive Bits/(Pixel*Frame)               : 0.205 Stream size                      : 281 MiB (84%) Audio ID                               : 1 Format                           : WMA Format profile                   : Pro Codec ID                         : 162 Codec ID/Info                    : Windows Media Audio Description of the codec         : Windows Media Audio 10 Professional - 384 kbps, 48 kHz, 2 channel 24 bit 1-pass CBR Duration                         : 19mn 37s Bit rate mode                    : Constant Bit rate                         : 384 Kbps Channel(s)                       : 2 channels Sampling rate                    : 48.0 KHz Bit depth                        : 24 bits Stream size                      : 53.9 MiB (16%) DOWNLOAD FREE! NO PASS!

Download from Hotfile
files:3
size:336 MB
Young Models Casting - Nadya.part1.rar
Young Models Casting - Nadya.part2.rar
Young Models Casting - Nadya.part3.rar
 
Added:2010-09-02
Share link:
Forum link:
Password:CBRDuration 


report abuse

Broken link